#TITLE:Pure In Asia;
#SUBTITLE:DeadMaster;
#ARTIST:Eternal Nocturne;
#TITLETRANSLIT:;
#SUBTITLETRANSLIT:;
#ARTISTTRANSLIT:;
#CREDIT:;
#BANNER:bn.png;
#BACKGROUND:bg.png;
#LYRICSPATH:;
#CDTITLE:cd.png;
#MUSIC:Pure In Asia.mp3;
#OFFSET:0.000;
#SAMPLESTART:100.000;
#SAMPLELENGTH:12.000;
#SELECTABLE:YES;
#BPMS:0.000=160.090,515.000=144.080,519.000=129.670;
#STOPS:;
#BGCHANGES:;
// cache tags:
#FIRSTBEAT:0.500;
#LASTBEAT:527.500;
#SONGFILENAME:Songs/Super Dancer Online mania/Pure In Asia/Pure In Asia.sm;
#HASMUSIC:1;
#HASBANNER:1;
#MUSICLENGTH:199.553;
// end cache tags

//---------------dance-single - ----------------
#NOTES:
     dance-single:
     :
     Hard:
     44:
     1.000,1.000,1.000,1.000,1.000,1604.000,694.000,889.000,0.000,208.000:
0000
1001
1100
0110
0011
0110
1000
0011
,
0100
0000
1010
0000
0100
0000
0010
0000
0001
0000
1000
0000
0010
0000
0100
1000
,
0000
0000
0000
0000
0002
0000
0000
0000
0000
0003
1000
0000
0000
0000
0100
0000
0000
0000
0010
0000
0000
0000
1001
0000
0000
0000
0100
0000
0000
0000
0010
0000
,
0000
0000
0001
0000
0000
0000
1100
0000
0000
0000
0010
0000
0000
0000
0001
0000
0000
0000
0100
0000
0000
0000
1002
0000
0000
0003
0020
0000
0000
0030
0200
0000
,
0000
0300
2000
0000
0000
3000
0012
0000
0000
0003
0120
0000
0000
0030
1200
0000
0000
0300
2001
0000
0001
3000
2010
0000
0000
3000
0201
0000
0000
0300
1020
0000
,
0000
0030
0102
0000
0000
0003
2010
0000
0000
3000
0201
0000
0000
0300
1020
0000
0000
0030
0102
0000
0100
0003
0012
0000
0000
0003
0120
0000
1000
0030
0200
0000
,
0001
0300
2010
0000
0000
3000
0102
0000
0000
0003
1020
0000
1000
0030
0201
0000
0000
0300
2010
0000
0000
3000
2020
0000
0000
3030
0200
0000
0000
0300
2020
0000
,
0000
3030
0002
0000
0000
0003
2020
0000
0000
3030
0200
0000
0000
0300
2020
0000
0000
3030
0002
0000
0000
0003
2002
0000
0000
3003
0120
0000
0000
0030
0201
0000
,
0001
0300
2010
0000
0010
3000
0202
0000
0000
0303
2020
0000
0000
3030
0201
0000
0001
0300
2001
0000
0001
3000
0210
0000
0000
0000
0001
0000
0000
0300
2020
0000
,
0000
0000
0100
0000
0000
3030
0102
0000
0000
0000
0010
0000
0000
0000
1200
0000
0000
0000
0010
0000
0000
0303
2010
0000
0000
3000
0201
0000
0000
0300
2020
0000
,
0000
0030
0102
0000
0000
3003
0012
0000
0000
0003
0120
0000
0000
0030
0202
0000
0000
0300
2010
0000
0000
3003
0210
0000
0000
0000
0001
0000
0000
0300
2020
0000
,
0000
0000
0001
0000
0000
3030
0201
0000
0000
0300
1020
0000
0000
0030
2002
0000
0000
0003
0120
0000
0000
3030
0201
0000
0000
0300
1020
0000
0000
0030
2102
0000
,
0000
3000
0210
0000
0000
0303
1020
0000
0001
0030
0200
0000
0000
0300
2002
0000
0000
0000
0010
0000
0000
3003
0220
0000
0000
0000
0000
0000
0000
0330
0002
0000
,
0000
0000
0000
0000
0000
0003
0220
0000
0000
0000
0000
0000
0000
0300
0000
0000
0000
0000
0000
0000
0000
0030
2002
0000
0000
0003
0020
0000
0000
3030
0200
0000
,
0000
0300
2000
0000
0000
3000
2002
0000
0000
3000
0200
0000
0000
0303
0020
0000
0000
0030
0002
0000
0000
0003
2020
0000
0000
0000
0000
0000
0000
3030
0200
0000
,
0000
0000
0000
0000
0000
0300
0022
0000
0000
0030
0200
0000
0000
0303
2000
0000
0000
3000
0200
0000
0000
0300
1012
0000
0000
0003
1120
0000
0000
0030
1102
0000
,
0000
0003
1120
0000
0000
0030
1102
0000
1100
0000
1100
0000
1100
0000
1100
0000
1100
0000
1100
0000
1100
0000
0003
0000
0010
0000
0000
0000
0010
0000
0000
0000
,
0101
0000
0000
0000
0010
0000
0010
0000
1000
0000
0100
0000
0011
0000
0000
0000
0201
0000
0001
0000
0001
0000
0001
0300
2022
0000
0000
3030
0200
0000
0000
0300
,
2020
0000
0000
3030
0200
0000
0000
0300
2020
0000
0000
3030
0200
0000
0000
0300
2020
0000
0000
3030
0200
0000
0000
0303
2220
0000
0000
3300
0002
0000
0000
0003
,
2200
0000
0000
3300
0002
0000
0000
0003
2200
0000
0000
3300
0002
0000
0000
0003
2200
3300
0002
0003
2200
3300
0002
0033
2202
0000
0000
3003
0020
0000
0000
0030
,
2002
0000
0000
3003
0020
0000
0000
0030
2002
0000
0000
3003
0020
0000
0000
0030
2002
0000
0000
3003
0020
0000
0000
0330
2202
0000
0000
0303
0020
0000
0000
0030
,
0202
0000
0000
0303
0020
0000
0000
0030
0202
0000
0000
0303
0020
0030
0202
0303
0202
0000
0000
0303
0020
0000
3000
0030
2022
0000
0000
3030
0200
0000
0000
0300
,
2020
0000
0000
3030
0200
0000
0000
0300
2020
0000
0000
3030
0200
0000
0000
0300
2020
0000
0000
3030
0200
0000
0000
0303
2220
0000
0000
3300
0002
0000
0000
0003
,
2200
0000
0000
3300
0002
0000
0000
0003
2200
0000
0000
3300
0002
0000
0000
0003
2200
3300
0002
0003
2200
3300
0002
0033
2202
0000
0000
3003
0020
0000
0000
0030
,
2002
0000
0000
3003
0020
0000
0000
0030
2002
0000
0000
3003
0020
0000
0000
0030
2002
0000
0000
3003
0020
0000
0000
0330
2202
0000
0000
0303
0020
0000
0000
0030
,
0202
0000
0000
0303
0020
0000
0000
3030
0002
0003
0020
0030
0200
0300
2000
3000
0002
0003
0020
0030
0200
0300
2000
3000
0001
0000
0010
0000
0100
0000
0010
0000
,
0102
1000
0103
0010
0001
0010
0100
0010
0102
1000
0103
0010
0100
0010
0001
0010
,
0102
1000
0103
0010
0100
0010
0001
0010
0102
1000
0103
0010
0001
0010
0100
0010
,
2001
0010
3100
0010
0100
1000
0100
0010
2001
0010
3100
0010
0100
0010
0001
0010
,
2100
0010
3100
0010
0100
1000
0100
0010
2001
0010
3100
0010
0001
0010
0100
1000
,
0102
0010
0103
1000
0100
0010
0001
0010
0102
0010
0103
1000
0100
0010
0001
0010
,
0102
0010
0103
1000
0100
0010
0100
0010
0102
1000
0103
0010
0100
1000
0100
0010
,
2001
0010
3100
0010
0100
0010
0001
0010
2100
0010
3001
0010
0001
1010
1100
0010
,
2100
0000
3010
0000
0001
0000
1010
0000
0100
0000
1010
0000
1001
0000
0010
0000
2100
0000
0010
0000
3001
0000
0010
0000
0200
0300
2000
3000
0200
0300
0020
0030
,
0002
0003
0020
0030
0200
0300
0020
0030
0200
0300
2000
3000
0200
0300
0020
0030
0200
0300
0020
0030
0002
0003
0020
0030
0200
0300
2000
3000
0200
0300
0020
0030
,
0002
0003
0020
0030
0200
0300
0020
0030
0002
0003
0020
0030
0200
0300
2000
3000
0200
0300
0020
0030
0200
0300
2000
3000
0002
0003
0020
0030
0200
0300
0020
0030
,
0200
0300
2000
3000
0200
0300
0020
0030
0002
0003
0020
0030
0200
0300
0020
0030
0002
0003
0020
0030
0200
0300
2000
3000
0020
0030
0002
0003
0200
0300
0020
0030
,
2000
3000
0200
0300
0020
0030
0200
0300
0002
0003
0020
0030
0200
0300
0020
0030
0200
0300
2000
3000
0200
0300
0020
0030
0102
0003
0020
0030
0201
0300
2000
3000
,
0102
0003
0020
0030
0201
0300
2000
3000
0102
0003
0020
0030
0201
0300
2000
3000
0102
0003
0020
0030
0201
0300
2001
3000
2010
3000
0200
0300
1020
0030
0002
0003
,
2010
3000
0200
0300
1020
0030
0002
0003
2010
3000
0200
0300
1020
0030
0002
0003
2010
3000
0200
0300
1020
0030
0002
0003
0102
0003
0020
0030
0201
0300
2001
3000
,
0102
0003
0020
0030
0201
0300
2000
3000
2010
3000
0200
0300
1020
0030
0002
0003
2010
3000
0200
0300
1020
0030
1002
0003
0102
0003
0020
0030
0201
0300
2000
3000
,
2010
3000
0200
0300
1020
0030
0002
0003
1100
0000
0000
0000
0110
0000
0000
0000
0011
0000
0000
0000
0110
0000
0000
0000
2222
0000
3333
0000
0000
0000
0000
0000
,
0000
0000
0000
0000
0222
0333
0000
0000
0000
0000
0000
0000
2022
3033
0000
0000
,
0000
0000
0000
0000
2220
3330
0000
0000
0000
0000
0000
0000
0222
0333
0000
0000
,
0000
0000
0000
0000
2202
3303
0000
0000
0000
0000
0000
0000
2220
3330
0000
0000
,
0000
0000
0000
0000
0000
0000
0000
0000
2022
0000
3033
0000
1100
0000
0000
0000
0110
0000
0011
0000
0000
0000
0110
0000
2001
0000
0000
0000
0010
0000
0000
3000
,
0201
0000
0000
0000
1000
0000
0000
0300
0012
0000
0000
0000
0100
0000
0000
0000
1100
0000
0000
0003
0020
0000
0000
0000
1100
0000
0000
0030
0002
0000
0000
0003
,
0210
0000
0000
0300
0020
0000
0000
0030
2001
0000
0000
3000
0200
0000
0000
0300
1020
0000
0000
0030
0002
0000
0000
0003
2100
0000
0000
0000
0010
0000
0000
3000
,
0201
0000
0000
0000
0010
0000
0000
0300
1002
0000
0000
0003
0020
0000
0000
0030
1200
0000
0000
0300
0020
0000
0000
0030
2100
0000
0000
3000
0002
0000
0000
0003
,
0210
0000
0000
0300
0020
0000
0000
0030
0002
0003
0020
0030
0200
0300
2000
3000
0002
0003
0020
0030
0200
0300
2000
3000
1000
0100
0010
0001
1000
0100
0010
0001
,
1000
0100
0010
0001
1000
0100
0010
0001
1000
0100
0010
0001
1000
0100
0010
0001
1000
0100
0010
0001
1000
0100
0010
0001
0001
0010
0100
1000
0001
0010
0100
1000
,
0001
0010
0100
1000
0001
0010
0100
1000
0001
0010
0100
1000
0001
0010
0100
1000
0001
0010
0100
1000
0001
0010
0100
1000
1000
0100
0010
0001
1000
0100
0010
0001
,
1000
0100
0010
0001
1000
0100
0010
0001
0001
0010
0100
1000
0001
0010
0100
1000
0001
0010
0100
1000
0001
0010
0100
1000
1000
0100
0010
0001
1000
0100
0010
0001
,
1000
0100
0010
0001
1000
0100
0010
0001
1000
0000
0000
0000
0110
0000
0000
0000
0111
0000
0000
0000
0110
0000
0000
0000
1002
0003
2100
3000
0210
0300
0021
0030
,
1002
0003
2100
3000
0220
0330
0021
0030
1002
0003
2100
3000
0210
0300
0021
0030
2001
3000
2100
3000
0210
0300
0021
0030
2001
3000
0012
0003
0120
0030
1200
0300
,
2001
3000
0012
0003
0120
0030
1200
0300
2001
3000
0012
0003
0120
0030
1200
0300
2001
3000
0012
0003
0120
0030
1200
0300
1002
0003
2100
3000
0210
0300
0021
0030
,
1002
0003
2100
3000
0210
0300
0021
0030
1002
0003
2100
3000
0210
0300
0021
0030
1002
0003
2100
3000
0210
0300
0021
0030
2001
3000
0012
0003
0120
0030
1200
0300
,
2001
3000
0012
0003
0120
0030
1200
0300
0011
0000
0000
0000
0101
0000
0000
0000
1001
0000
0000
0000
0101
0000
0000
0000
0012
0000
0000
0000
1000
0000
0000
0000
,
1100
0000
0000
0000
0010
0000
0000
0003
0120
0000
0000
0000
1000
0000
0000
0000
0100
0000
0000
0000
0001
0000
0000
0030
2100
0000
0000
0000
0010
0000
0000
0000
,
0001
0010
0000
0100
0000
0000
0001
0000
0010
0000
0100
0000
0011
0000
0001
0000
,
0010
0000
0000
0000
0100
0000
0000
3000
0012
0000
0000
0000
0100
0000
0000
0000
1000
0000
0000
0000
0100
0000
0000
0000
1020
0000
0000
0000
0100
0000
0000
0000
,
1000
0000
0100
0000
0000
0000
0000
0000
1000
0000
0000
0000
0100
0000
0000
0000
0100
0000
0000
0000
1000
0000
0000
0033
1100
0000
0000
0000
0010
0000
0000
0000
,
0101
0000
0010
0000
0011
0000
0100
0000
1000
0000
0001
0110
0000
0000
1100
0110
,
0000
0000
0011
0110
0000
0000
1100
0110
0000
0000
0011
0000
0110
0000
1100
0000
,
0000
0000
0011
0000
0110
1100
0000
0110
0000
0011
0000
0000
0000
0110
1100
0000
,
0000
0000
0000
0000
0011
0000
0000
0000
2001
0000
0000
3000
0210
0000
0000
0300
1020
0000
0000
0030
0102
0000
0000
0003
2010
0000
0000
0000
0100
0000
0000
3000
,
0122
0000
0000
0000
1000
0000
0000
0033
1200
0000
0000
0000
0010
0000
0000
0000
2011
0000
0000
0000
0001
0000
0001
3300
0012
0000
0000
0003
0020
0000
0000
0030
,
2102
0000
0000
3000
0200
0000
0000
0303
0012
0000
0000
0003
0020
0000
0000
0030
1202
0000
0000
0300
2000
0000
0000
3003
0210
0000
0000
0000
0001
0000
0000
0300
,
2021
0000
0000
0000
0100
0000
0000
3030
0102
0000
0000
0003
0020
0000
0000
0030
2201
0000
0300
0000
0020
0000
0000
3030
0102
0000
0000
0003
0020
0000
0000
0030
,
1202
0000
0000
0300
2000
0000
0000
3003
0210
0000
0000
0300
0020
0000
0000
0030
1202
0000
0000
0000
0010
0000
0000
0303
2020
0000
0000
0000
0000
0000
0000
3030
,
0200
0000
0000
0000
0000
0000
0000
0300
0022
0000
0000
0000
0000
0000
0000
0003
0000
0000
0000
0000
0000
0000
0000
0030
0202
0000
0000
0003
0020
0000
0000
0330
,
2000
0000
0000
3000
0200
0000
0000
0300
2002
0000
0000
3000
0200
0000
0000
0303
0020
0000
0000
0030
0002
0000
0000
0003
2200
0000
0000
0000
0000
0000
0000
3300
,
0020
0000
0000
0000
0000
0000
0000
0030
2002
0000
0000
0003
0020
0000
0000
3030
0200
0000
0000
0300
0020
0000
0000
0030
2001
0000
0000
3000
0201
0000
0000
0300
,
0021
0000
0000
0030
0201
0000
0000
0300
2011
0000
0011
0000
0011
0000
0011
0000
0011
0000
0011
0000
0011
0000
0011
3000
0100
0000
0000
0000
0100
0000
0000
0000
,
0011
0000
0001
0010
0100
1000
0011
0000
1100
1100
1100
1100
0011
0011
0011
0000
,
0011
0000
0000
0000
0011
0000
0011
0000
0000
0000
0011
0000
0000
0000
0011
0000
2011
0000
0000
0000
0000
0000
0000
3000
2202
0000
0000
0303
0010
0000
0010
0000
,
0202
0000
0000
0303
0010
0000
0010
0000
0202
0000
0000
0303
0010
0000
0010
0000
0202
0000
0000
0303
0010
0000
0010
3000
2022
0000
0000
3030
0100
0000
0100
0000
,
2020
0000
0000
3030
0100
0000
0100
0000
2020
0000
0000
3030
0100
0000
0100
0000
2020
3030
0200
0300
2020
3030
0200
0303
2202
0000
0000
0303
0010
0000
0010
0000
,
0202
0000
0000
0303
0010
0000
0010
0000
0202
0000
0000
0303
0010
0000
0010
0000
0202
0000
0000
0303
0010
0000
0010
3000
2022
0000
0000
3030
0100
0000
0100
0000
,
2020
0000
0000
3030
0100
0000
0100
0000
2020
0000
0000
3030
0100
0000
0100
0000
2020
3030
0200
0300
2020
3030
0200
0303
2022
0000
0000
0033
0100
0000
0100
0000
,
0022
0000
0000
0033
0100
0000
0100
0000
0022
0000
0000
0033
0100
0000
0100
0000
0022
0000
0000
0033
0100
0000
0100
3000
2202
0000
0000
3003
0010
0000
0010
0000
,
2002
0000
0000
3003
0010
0000
0010
0000
2002
0000
0000
3003
0010
0000
0010
0000
2002
3003
0000
0000
2002
3003
0000
0300
2220
0000
0000
3300
0001
0000
0001
0000
,
2200
0000
0000
3300
0001
0000
0001
0000
2200
0000
0000
3300
0001
0000
0001
0000
2200
0000
0000
3300
0001
0000
0001
0030
0222
0000
0000
0330
1000
0000
1000
0000
,
0220
0000
0000
0330
1000
0000
1000
0000
0110
0000
1100
0000
0110
0000
1100
0000
0110
0000
1100
0000
0110
0000
1100
0003
1010
0000
0101
0000
1010
0000
0101
0000
,
1010
0101
1010
0101
1010
0101
1010
0101
1010
0101
1010
0101
1001
0110
1001
0110
,
1001
0110
1001
0110
1001
0110
1001
0110
1001
0110
1001
0110
0101
1010
0101
1010
,
0101
1010
0101
1010
0101
1010
0101
1010
0101
1010
0101
1010
0110
1001
0110
1001
,
0110
1001
0110
1001
0110
1001
0110
1001
0110
1001
0110
1001
1100
0110
0011
0110
,
1101
0110
0011
0110
1100
0110
0011
0110
1101
0110
0011
0110
0011
0110
1100
0110
,
1011
0110
1100
0110
0011
0110
1100
0110
1011
0110
1100
0110
1100
0110
0011
0110
,
1101
0110
0011
0110
1100
0110
0011
0110
1101
0110
0011
0110
0011
0110
1100
0110
,
1011
0000
0110
0000
1100
0000
0110
0000
0011
0000
0110
0000
1100
0000
0110
0000
1011
0000
0110
0000
1100
0000
0110
0000
0200
0300
2000
3000
0020
0030
0200
0300
,
0002
0003
0020
0030
0200
0300
2000
3000
0020
0030
0200
0300
0002
0003
0020
0030
0200
0300
2000
3000
0020
0030
0200
0300
0002
0003
0020
0030
0200
0300
2000
3000
,
0020
0030
0200
0300
0002
0003
0020
0030
0200
0300
2000
3000
0020
0030
0200
0300
0002
0003
0020
0030
0200
0300
2000
3000
0020
0030
0002
0003
0200
0300
0020
0030
,
2000
3000
0200
0300
0020
0030
0002
0003
0200
0300
0020
0030
2000
3000
0200
0300
0020
0030
0002
0003
0200
0300
0020
0030
2000
3000
0200
0300
0020
0030
0002
0003
,
0200
0300
0020
0030
2000
3000
0200
0300
0020
0030
0002
0003
0200
0300
0020
0030
2000
3000
0200
0300
0020
0030
0002
0003
0202
0300
2000
3003
0020
0030
0200
0300
,
0002
0003
0020
0030
0200
0300
2000
3000
2020
0030
0200
3300
0002
0003
0020
0030
0200
0300
2000
3000
0020
0030
0200
0300
2002
0003
0020
3030
0200
0300
2000
3000
,
0020
0030
0200
0300
0002
0003
0020
0030
0202
0300
2000
3003
0020
0030
0200
0300
0002
0003
0020
0030
0200
0300
2000
3000
2020
0030
0002
3003
0200
0300
0020
0030
,
2000
3000
0200
0300
0020
0030
0002
0003
0202
0300
0020
0033
2000
3000
0200
0300
0020
0030
0002
0003
0200
0300
0020
0030
2002
3000
0200
0303
0020
0030
0002
0003
,
0200
0300
0020
0030
2000
3000
0200
0300
0011
0000
0000
0000
0110
0000
0000
0000
1100
0000
0000
0000
0110
0000
0000
0000
2002
0000
0000
0000
0000
0000
0000
0000
,
0200
0000
0000
0003
0000
0000
0000
3000
0022
0000
0000
0300
0000
0000
0000
0000
0000
0000
0000
0033
2000
0000
0000
3000
0200
0000
0000
0300
0020
0000
0000
0030
,
0002
0000
0000
0003
2000
0000
0000
3000
0200
0000
0000
0300
0020
0000
0000
0030
0002
0000
0000
0003
0220
0000
0000
0000
0000
0000
0000
0030
0002
0000
0000
0000
,
0000
0000
0000
0303
2020
0000
0000
0030
0002
0000
0000
0003
0020
0000
0000
0030
0200
0000
0000
3300
0022
0000
0000
0000
0200
0000
0000
0300
2000
0000
0000
0030
,
0200
0000
0000
0300
0020
0000
0000
3000
0200
0000
0000
0030
2000
0000
0000
0300
0000
0000
0000
3003
0020
0000
0000
0000
0200
0000
0000
0000
0002
0000
0000
0030
,
2000
0000
0000
3300
0020
0000
0000
0003
2000
0000
0000
0030
0200
0000
0000
3000
0002
0000
0000
0000
0020
0000
0000
0300
2000
0000
0000
0003
0200
0000
0000
0030
,
0002
0000
0000
0300
0020
0000
0000
3003
0200
0000
0000
0030
2000
0000
0000
0000
0002
0000
0000
0303
0020
0000
0000
3000
0200
0000
0000
0300
0002
0000
0000
0000
,
2000
0000
0000
3033
0200
0000
0000
0000
0020
0000
0000
0300
2000
0000
0000
0030
0202
0000
0000
3000
0020
0000
0000
0333
2000
0000
0000
0000
0202
0000
0000
3303
,
0020
0000
0000
0030
0202
0000
0000
0303
2020
0000
0000
3030
0202
0000
0000
0300
0020
0000
0000
0033
1000
0100
0010
0001
1000
0100
0010
0001
1000
0100
0010
0001
,
1000
0100
0010
0001
1000
0100
0010
0001
1000
0100
0010
0001
1000
0100
0010
0001
1000
0100
0010
0001
0001
0010
0100
1000
0001
0010
0100
1000
0001
0010
0100
1000
,
0001
0010
0100
1000
0001
0010
0100
1000
0001
0010
0100
1000
0001
0010
0100
1000
0001
0010
0100
1000
1000
0100
0010
0001
1000
0100
0010
0001
1000
0100
0010
0001
,
1000
0100
0010
0001
1000
0100
0010
0001
1000
0100
0010
0001
1000
0100
0010
0001
1000
0100
0010
0001
0001
0010
0100
1000
0001
0010
0100
1000
0001
0010
0100
1000
,
0001
0010
0100
1000
0001
0010
0100
1000
0001
0010
0100
1000
0001
0010
0100
1000
0001
0010
0100
1000
0012
0003
0120
0030
1200
0300
2001
3000
2100
3000
0210
0300
,
0021
0030
1002
0003
2100
3000
0210
0300
0021
0030
1002
0003
0012
0003
0120
0030
1200
0300
2001
3000
0012
0003
0120
0030
1200
0300
2001
3000
2100
3000
0210
0300
,
0021
0030
1002
0003
2100
3000
0210
0300
0021
0030
1002
0003
0012
0003
0120
0030
1200
0300
2001
3000
0012
0003
0120
0030
1200
0300
2001
3000
2100
3000
0210
0300
,
0021
0030
1002
0003
2100
3000
0210
0300
0021
0030
1002
0003
0012
0003
0120
0030
1200
0300
2001
3000
0012
0003
0120
0030
1200
0300
2001
3000
2100
3000
0210
0300
,
0021
0030
1002
0003
1100
0000
0000
0000
0110
0000
0000
0000
0011
0000
0000
0000
0110
0000
0000
0000
1100
0000
0000
0000
0000
0000
0000
0000
0101
0000
0000
0000
,
0000
0000
1010
0000
0011
0000
0110
0000
1100
0000
0011
0000
0110
0000
1100
0110
,
0000
0011
1100
0110
0011
1101
0110
0011
,
0110
0000
1011
0000
0110
0000
1100
0000
0110
0000
1011
0000
0110
0000
1100
0110
,
0000
1001
0011
0110
1100
1011
0000
1110
,
0000
0000
0111
0000
0000
0000
0000
0000
0000
0000
1110
0111
0000
0000
1101
1011
,
0000
0000
0111
1110
0000
0000
1011
1110
0000
0000
0111
0000
1110
0000
1101
0000
,
0000
0000
0111
0000
1011
1110
0000
1101
0000
0111
0000
0000
1110
1011
0000
0000
,
0111
0000
0000
0000
2100
0000
0000
3000
0210
0000
0000
0300
0021
0000
0000
0030
1002
0000
0000
0003
2100
0000
3010
0000
0100
0000
0010
0000
0102
0000
1000
0000
,
0103
0010
2001
3010
0100
0010
0102
1000
0103
0010
1002
0103
0010
0100
2010
0001
,
3010
0100
1002
0103
0010
0100
2010
0001
3010
0100
2001
3010
0100
0010
0102
1000
,
0103
0010
2001
3010
0100
0010
0102
1000
0103
0010
1002
0103
0010
0100
2010
0001
,
3010
0100
1002
0103
0010
0100
2010
0001
3010
0100
2000
0100
0010
0001
0010
0100
,
3010
0100
1002
0100
0010
0100
0010
0100
1003
0100
1011
0000
0110
0000
1100
0000
,
0110
1101
0110
0011
0110
1101
0010
0011
,
0100
1011
0110
0011
1100
1110
1101
1011
,
0111
0000
1111
1111
1111
1111
1111
1111
1111
1111
0000
0000
0000
0000
0000
0000
;

//---------------dance-solo - ----------------
#NOTES:
     dance-solo:
     :
     Hard:
     46:
     1.000,1.000,1.000,1.000,1.000,1606.000,717.000,978.000,0.000,346.000:

000000
110000
011000
001100
000110
000011
100000
001100
,
010000
000000
101000
000000
000100
000000
000010
000000
000001
000000
100000
000000
000100
000000
010000
100000
,
000000
000000
000000
000000
000020
000000
000000
000000
000000
000030
000100
000000
000000
000000
001000
000000
000000
000000
010000
000000
000000
000000
100010
000000
000000
000000
010000
000000
000000
000000
001000
000000
,
000000
000000
000100
000000
000000
000000
000011
000000
000000
000000
000100
000000
000000
000000
001000
000000
000000
000000
010000
000000
000000
000000
100200
000000
000000
000300
002000
000000
000000
003000
020000
000000
,
000000
030000
200000
000000
000000
300000
000120
000000
000000
000030
001200
000000
000000
000300
012000
000000
000000
003000
120000
000000
100000
030000
201000
000000
000000
300000
020100
000000
000000
030000
002010
000000
,
000000
003000
000201
000000
000000
000300
201000
000000
000000
300000
020100
000000
000000
030000
002010
000000
000000
003000
000201
000000
000001
000300
001020
000000
000000
000030
100200
000000
010000
000300
002000
000000
,
000010
003000
020100
000000
000000
030000
001020
000000
000000
000030
100200
000000
100000
000300
002010
000000
000000
003000
020001
000000
000000
030000
202000
000000
000000
303000
020000
000000
000000
030000
202000
000000
,
000000
303000
000200
000000
000000
000300
002020
000000
000000
003030
020000
000000
000000
030000
002020
000000
000000
003030
000200
000000
000000
000300
200002
000000
000000
300003
000120
000000
000000
000030
001200
000000
,
010000
000300
102000
000000
100000
003000
020200
000000
000000
030300
202000
000000
000000
303000
000201
000000
000001
000300
000021
000000
000001
000030
021000
000000
000000
000000
000100
000000
000000
030000
202000
000000
,
000000
000000
010000
000000
000000
303000
000210
000000
000000
000000
001000
000000
000000
000000
120000
000000
000000
000000
000001
000000
000000
030300
201000
000000
000000
300000
020100
000000
000000
030000
202000
000000
,
000000
003000
000210
000000
000000
300300
000021
000000
000000
000030
001200
000000
000000
000300
002002
000000
000000
003000
020100
000000
000000
030003
001020
000000
000000
000000
010000
000000
000000
000030
202000
000000
,
000000
000000
000100
000000
000000
303000
020100
000000
000000
030000
002010
000000
000000
003000
200200
000000
000000
000300
001020
000000
000000
300030
020100
000000
000000
030000
102000
000000
000000
003000
210200
000000
,
000000
300000
021000
000000
000000
030300
002010
000000
000001
003000
000200
000000
000000
000300
200020
000000
000000
000000
000100
000000
000000
300030
022000
000000
000000
000000
000000
000000
000000
033000
000200
000000
,
000000
000000
000000
000000
000000
000300
022000
000000
000000
000000
000000
000000
000000
030000
000000
000000
000000
000000
000000
000000
000000
003000
200020
000000
000000
000030
000200
000000
000000
300300
002000
000000
,
000000
003000
020000
000000
000000
030000
200002
000000
000000
300000
020000
000000
000000
030003
002000
000000
000000
003000
000200
000000
000000
000300
200020
000000
000000
000000
000000
000000
000000
300030
020000
000000
,
000000
000000
000000
000000
000000
030000
002200
000000
000000
003000
020000
000000
000000
030300
200000
000000
000000
300000
020000
000000
000000
030000
100012
000000
000000
000003
100120
000000
000000
000030
101200
000000
,
000000
000300
112000
000000
000000
003000
110222
000000
110000
000000
110000
000000
110000
000000
110000
000000
110000
000000
110000
000000
110000
000333
000000
000000
011000
000000
000000
000000
010100
000000
000000
000000
,
101000
000000
000000
000000
010100
000000
001010
000000
000101
000000
001010
000000
010100
000000
000000
000000
020001
000000
000001
000000
000001
000000
000001
030000
202200
000000
000000
303000
020000
000000
000000
030000
,
202000
000000
000000
303000
020000
000000
000000
030000
202000
000000
000000
303000
020000
000000
000000
030000
202000
000000
000000
303000
020000
000000
000000
030300
202020
000000
000000
300030
000200
000000
000000
000300
,
200020
000000
000000
300030
000200
000000
000000
000300
200020
000000
000000
300030
000200
000000
000000
000300
200020
300030
000200
000300
200020
300030
000200
003300
220002
000000
000000
300003
000020
000000
000000
000030
,
200002
000000
000000
300003
000020
000000
000000
000030
200002
000000
000000
300003
000020
000000
000000
000030
200002
000000
000000
300003
000020
000000
000000
030030
202002
000000
000000
003003
000200
000000
000000
000300
,
002002
000000
000000
003003
000200
000000
000000
000300
002002
000000
003003
000000
000200
000300
002002
003003
002002
000000
000000
003003
000200
000000
000000
300300
002022
000000
000000
003003
020000
000000
000000
030000
,
002002
000000
000000
003003
020000
000000
000000
030000
002002
000000
000000
003003
020000
000000
000000
030000
002002
000000
000000
003003
020000
000000
000000
030030
202200
000000
000000
300300
000002
000000
000000
000003
,
200200
000000
000000
300300
000002
000000
000000
000003
200200
000000
000000
300300
000002
000000
000000
000003
200200
300300
000002
000003
200200
300300
000002
003003
220020
000000
000000
300030
002000
000000
000000
003000
,
200020
000000
000000
300030
002000
000000
000000
003000
200020
000000
000000
300030
002000
000000
000000
003000
200020
000000
000000
300030
002000
000000
000000
033000
200202
000000
000000
000303
000020
000000
000000
000030
,
000202
000000
000000
000303
000020
000000
000000
300030
000200
000300
002000
003000
020000
030000
200000
300000
000020
000030
000200
000300
002000
003000
020000
030000
000001
000000
000010
000000
000100
000000
001000
000000
,
010002
100000
010003
001000
000100
001000
010000
001000
000102
000010
000103
001000
010000
001000
000100
001000
,
010002
100000
010003
001000
010000
001000
000100
000010
000102
001000
010003
001000
000100
001000
010000
001000
,
200100
000010
300001
000010
000100
001000
010000
001000
200100
001000
300100
000010
000001
000010
000100
001000
,
210000
001000
300100
001000
010000
100000
010000
001000
200100
001000
300100
000010
000001
000010
000100
001000
,
010002
001000
010003
100000
010000
001000
000100
001000
010002
001000
010003
100000
010000
001000
000100
000010
,
000102
001000
010003
100000
010000
001000
000100
001000
010002
100000
010003
001000
000100
000010
000001
000010
,
200100
001000
310000
001000
000100
000010
000100
001000
200100
000010
300001
000010
000100
101000
100100
000010
,
200100
000000
301000
000000
010000
000000
101000
000000
000100
000000
100010
000000
100100
000000
001000
000000
200100
000000
000010
000000
300001
000000
000010
000000
020002
030000
200000
300000
020000
030000
002000
003000
,
000200
000300
000020
000030
000200
000300
002003
003000
020000
030000
200000
300000
020000
030000
002000
003000
020000
030000
002000
003000
000200
000300
000020
000030
000002
000003
000020
000030
000200
000300
002000
003000
,
000200
000300
002000
003000
020000
030000
002000
003000
000200
000300
002000
003000
020000
030000
200000
300000
020000
030000
002000
003000
000200
000300
000020
000030
000202
000300
002000
003000
020000
030000
002000
003000
,
020000
030000
200000
300000
020000
030000
002003
003000
000200
000300
000020
000030
000002
000003
000020
000030
000200
000300
002000
003000
020000
030000
200000
300000
020000
030000
002000
003000
000200
000300
002000
003000
,
000200
000300
000020
000030
000002
000003
000020
000030
000200
000300
002000
003000
020000
030000
002000
003000
020000
030000
200000
300000
020000
030000
002000
003000
000201
000300
002000
003000
020010
030000
200000
300000
,
000201
000300
002000
003000
020010
030000
200000
300000
000201
000300
002000
003000
020010
030000
200000
300000
000201
000300
002000
003000
020010
030000
200010
300000
012000
003000
000200
000300
100020
000030
000002
000003
,
012000
003000
000200
000300
100020
000030
000002
000003
012000
003000
000200
000300
100020
000030
000002
000003
012000
003000
000200
000300
100020
000030
000002
000003
000210
000300
002000
003000
020001
030000
200001
300000
,
000210
000300
002000
003000
020001
030000
200000
300000
012000
003000
000200
000300
100020
000030
000002
000003
012000
003000
000200
000300
100020
000030
100002
000003
000210
000300
002000
003000
020001
030000
200000
300000
,
200010
300000
020000
030000
002001
003000
000200
000300
110000
000000
000000
000000
011000
000000
000000
000000
001100
000000
000000
000000
000110
000000
000000
000000
222222
000000
333333
000000
000000
000000
000000
000000
,
000000
000000
000000
000000
022202
033303
000000
000000
000000
000000
000000
000000
202202
303303
000000
000000
,
000000
000000
000000
000000
222020
333030
000000
000000
000000
000000
000000
000000
022202
033303
000000
000000
,
000000
000000
000000
000000
220220
330330
000000
000000
000000
000000
000000
000000
222002
333003
000000
000000
,
000000
000000
000000
000000
000000
000000
000000
000000
202022
000000
303033
000000
000110
000000
000000
000000
011000
000000
001100
000000
000000
000000
000011
000000
200100
000000
000000
000000
001000
000000
000000
300000
,
020100
000000
000000
000000
000010
000000
000000
030000
001200
000000
000000
000000
000001
000000
000000
000000
110000
000000
000000
000300
002000
000000
000000
000000
000110
000000
000000
003000
000200
000000
000000
000300
,
000021
000000
000000
000030
002000
000000
000000
003000
210000
000000
000000
300000
020000
000000
000000
030000
002010
000000
000000
003000
000200
000000
000000
000300
200001
000000
000000
000000
000010
000000
000000
300000
,
020100
000000
000000
000000
001000
000000
000000
030000
000210
000000
000000
000300
002000
000000
000000
003000
020001
000000
000000
030000
002000
000000
000000
003000
210000
000000
000000
300000
000200
000000
000000
000300
,
021000
000000
000000
030000
200000
000000
000000
300000
000002
000003
000020
000030
000200
000300
002000
003000
000200
000300
002000
003000
020000
030000
200000
300000
100000
010000
001000
000100
100000
010000
001000
000100
,
100000
010000
001000
000100
100000
010000
001000
000100
010000
001000
000100
000010
010000
001000
000100
000010
010000
001000
000100
000010
010000
001000
000100
000010
000001
000010
000100
001000
000001
000010
000100
001000
,
000001
000010
000100
001000
000001
000010
000100
001000
000001
000010
000100
001000
000001
000010
000100
001000
000001
000010
000100
001000
000001
000010
000100
001000
100000
010000
001000
000100
100000
010000
001000
000100
,
100000
010000
001000
000100
100000
010000
001000
000100
000001
000010
000100
001000
000001
000010
000100
001000
000001
000010
000100
001000
000001
000010
000100
001000
010000
001000
000100
000010
010000
001000
000100
000010
,
010000
001000
000100
000010
010000
001000
000100
000010
111000
000000
000000
000000
011100
000000
000000
000000
001110
000000
000000
000000
000111
000000
000000
000000
100202
000300
210000
300003
021020
030000
002100
003030
,
100202
000300
210000
300003
021020
030000
002100
003030
100202
000300
210000
300003
021020
030000
002100
003030
100202
000300
210000
300003
021020
030000
002100
003030
200102
300000
001200
000303
012020
003000
120000
030030
,
200102
300000
001200
000303
012020
003000
120000
030030
200102
300000
001200
000303
012020
003000
120000
030030
200102
300000
001200
000303
012020
003000
120000
030030
100202
000300
210000
300003
021020
030000
002100
003030
,
100202
000300
210000
300003
021020
030000
002100
003030
100202
000300
210000
300003
021020
030000
002100
003030
100202
000300
210000
300003
021020
030000
002100
003030
200102
300000
001200
000303
012020
003000
120000
030030
,
200102
300000
001200
000303
012020
003000
120000
030030
001100
000000
000000
000000
010010
000000
000000
000000
100001
000000
000000
000000
010010
000000
000000
000000
001200
000000
000000
000000
010000
000000
000000
000000
,
110000
000000
000000
000000
000001
000000
000000
000300
012000
000000
000000
000000
000100
000000
000000
000000
000010
000000
000000
000000
000100
000000
000000
003000
210000
000000
000000
000000
000001
000000
000000
000000
,
000100
001000
000000
010000
000000
000000
001000
000000
000100
000000
000010
000000
001100
000000
000010
000000
,
001000
000000
000000
000000
000001
000000
000000
300000
000210
000000
000000
000000
001000
000000
000000
000000
010000
000000
000000
000000
100000
000000
000000
000000
002001
000000
000000
000000
000010
000000
000000
000000
,
100000
000000
010000
000000
000000
000000
000000
000000
000001
000000
000000
000000
100000
000000
000000
000000
010000
000000
000000
000000
000010
000000
000000
003300
110000
000000
000000
000000
001000
000000
000000
000000
,
010100
000000
001000
000000
000110
000000
010000
000000
100000
000000
000100
000011
000000
000000
110000
011000
,
000000
000000
001100
011000
000000
000000
000110
001100
000000
000000
000011
000000
011000
000000
110000
000000
,
000000
000000
001100
000000
000011
000110
000000
011000
000000
001100
000000
000000
000000
000011
000110
000000
,
000000
000000
000000
000000
001100
000000
000000
000000
210000
000000
000000
300000
021000
000000
000000
030000
002100
000000
000000
003000
000210
000000
000010
000300
201000
000000
000000
000000
000001
000000
000000
300000
,
001220
000000
000000
000000
010000
000000
000000
000330
120000
000000
000000
000000
000001
000000
000000
000000
201100
000000
000000
000000
000010
000000
000010
330000
001200
000000
000000
000300
002000
000000
000000
003000
,
210200
000000
000000
300000
020000
000000
000000
030300
000021
000000
000000
000030
002000
000000
000000
003000
020210
000000
000000
030000
200000
000000
000000
300300
021000
000000
000000
000000
000100
000000
000000
030000
,
202100
000000
000000
000000
000010
000000
000000
303000
010200
000000
000000
000300
002000
000000
000000
003000
220001
000000
000000
030000
002000
000000
000000
303000
000210
000000
000000
000300
002000
000000
000000
003000
,
120200
000000
000000
030000
200000
000000
000000
300300
020010
000000
000000
030000
002000
000000
000000
003000
020210
000000
000000
000000
000001
000000
000000
030300
202000
000000
000000
000000
000000
000000
000000
303000
,
020000
000000
000000
000000
000000
000000
000000
030000
002200
000000
000000
000000
000000
000000
000000
000300
000000
000000
000000
000000
000000
000000
000000
003000
020200
000000
000000
000300
002000
000000
000000
033000
,
200000
000000
000000
300000
020000
000000
000000
030000
000202
000000
000000
000003
000020
000000
000000
000330
002000
000000
000000
003000
000200
000000
000000
000300
220000
000000
000000
000000
000000
000000
000000
330000
,
002000
000000
000000
000000
000000
000000
000000
003000
200200
000000
000000
000300
002000
000000
000000
303000
020000
000000
000000
030000
002000
000000
000000
003000
200001
000000
000000
300000
020001
000000
000000
030000
,
002000
000000
000000
003000
000201
000000
000000
000300
202011
000000
000011
000000
000011
000000
000011
000000
000011
000000
000011
000000
000011
000000
000011
303000
010000
000000
000000
000000
010000
000000
000000
000000
,
000011
000000
000100
001000
010000
100000
001100
000000
110000
110000
110000
110000
000011
000011
000011
000000
,
000011
000000
000000
000000
000011
000000
000011
000000
000000
000000
000011
000000
000000
000000
000011
000000
200011
000000
000000
000000
000000
000000
000000
300000
220200
000000
000000
030300
001000
000000
001000
000000
,
020200
000000
000000
030300
001000
000000
001000
000000
020200
000000
000000
030300
001000
000000
001000
000000
020200
000000
000000
030300
001000
000000
001000
300000
002022
000000
000000
003030
010000
000000
010000
000000
,
002020
000000
000000
003030
010000
000000
010000
000000
002020
000000
000000
003030
010000
000000
010000
000000
002020
003030
020000
030000
002020
003030
020000
030003
200220
000000
000000
000330
001000
000000
001000
000000
,
000220
000000
000000
000330
001000
000000
001000
000000
000220
000000
000000
000330
001000
000000
001000
000000
000220
000000
000000
000330
001000
000000
001000
300000
200202
000000
000000
300003
010000
000000
010000
000000
,
200002
000000
000000
300003
010000
000000
010000
000000
200002
000000
000000
300003
010000
000000
010000
000000
200002
300003
020000
030000
200002
300003
020000
030300
202020
000000
000000
003030
010000
000000
010000
000000
,
002020
000000
000000
003030
010000
000000
010000
000000
002020
000000
000000
003030
010000
000000
010000
000000
002020
000000
000000
003030
010000
000000
010000
300000
020202
000000
000000
000303
001000
000000
001000
000000
,
000202
000000
000000
000303
001000
000000
001000
000000
000202
000000
000000
000303
001000
000000
001000
000000
000202
000303
000000
000000
000202
000303
000000
030000
202020
000000
000000
300030
000100
000000
000100
000000
,
200020
000000
000000
300030
000100
000000
000100
000000
200020
000000
000000
300030
000100
000000
000100
000000
200020
000000
000000
300030
000100
000000
000100
003000
020022
000000
000000
030003
100000
000000
100000
000000
,
020002
000000
000000
030003
100000
000000
100000
000000
011000
000000
110000
000000
011000
000000
001100
000000
011000
000000
110000
000000
011000
000000
001100
000030
100100
000000
010010
000000
001001
000000
010010
000000
,
100100
010010
001001
010010
100100
010010
001001
010010
100100
010010
001001
010010
100001
010010
001100
010010
,
100001
010010
001100
010010
100001
010010
001100
010010
100001
010010
001100
010010
001001
010010
100100
010010
,
001001
010010
100100
010010
001001
010010
100100
010010
001001
010010
100100
010010
001100
010010
100001
010010
,
001100
010010
100001
010010
001100
010010
100001
010010
001100
010010
100001
010010
110000
011000
001100
000110
,
110011
011000
001100
000110
110000
011000
001100
000110
110011
011000
001100
000110
000011
000110
001100
011000
,
110011
000110
001100
011000
000011
000110
001100
011000
110011
000110
001100
011000
110000
011000
001100
000110
,
110011
011000
001100
000110
110000
011000
001100
000110
110011
011000
001100
000110
000011
000110
001100
011000
,
110011
000000
000110
000000
001100
000000
011000
000000
000011
000000
000110
000000
001100
000000
011000
000000
110011
000000
000110
000000
001100
000000
011000
000000
020000
030000
200000
300000
002000
003000
020000
030000
,
000200
000300
002000
003000
000020
000030
000200
000300
020000
030000
200000
300000
002000
003000
020000
030000
000200
000300
002000
003000
000020
000030
000200
000300
000020
000030
000002
000003
000200
000300
000020
000030
,
002000
003000
000200
000300
020000
030000
002000
003000
000020
000030
000002
000003
000200
000300
000020
000030
002000
003000
000200
000300
020000
030000
002000
003000
020000
030000
200000
300000
002000
003000
020000
030000
,
000200
000300
002000
003000
000020
000030
000200
000300
020000
030000
002000
003000
200000
300000
020000
030000
002000
003000
000200
000300
020000
030000
002000
003000
000020
000030
000002
000003
000200
000300
000020
000030
,
002000
003000
000200
000300
020000
030000
002000
003000
000020
000030
000002
000003
000200
000300
000020
000030
002000
003000
000200
000300
020000
030000
002000
003000
020002
030000
200000
300000
002000
003000
020003
030000
,
000200
000300
002000
003000
000020
000030
000200
000300
020002
030000
200000
300000
002000
003000
020003
030000
000200
000300
002000
003000
000020
000030
000200
000300
200020
000030
000002
000003
000200
000300
300020
000030
,
002000
003000
000200
000300
020000
030000
002000
003000
200020
000030
000002
000003
000200
000300
300020
000030
002000
003000
000200
000300
020000
030000
002000
003000
020002
030000
200000
300000
002000
003000
020003
030000
,
000200
000300
002000
003000
000020
000030
000200
000300
020002
030000
200000
300000
002000
003000
020003
030000
000200
000300
002000
003000
000020
000030
000200
000300
200020
000030
000002
000003
000200
000300
300020
000030
,
002000
003000
000200
000300
020000
030000
002000
003000
000011
000000
000000
000000
000110
000000
000000
000000
001100
000000
000000
000000
011000
000000
000000
000000
202200
000000
000000
000000
000000
000000
000000
003000
,
020000
000000
000000
000300
000000
000000
000000
300000
002202
000000
000000
030000
000000
000000
000000
000000
000000
000000
000000
000003
000000
000000
000000
003300
200020
000000
000000
300030
020002
000000
000000
030000
,
002000
000000
000000
003000
000200
000000
000000
000303
200020
000000
000000
300000
020000
000000
000000
030000
002000
000000
000000
003030
000202
000000
000000
000303
022020
000000
000000
000000
000000
000000
000000
003000
,
000200
000000
000000
000000
000000
000000
000000
030330
202002
000000
000000
003000
000200
000000
000000
000303
002020
000000
000000
003000
020000
000000
000000
330030
002200
000000
000000
000000
020000
000000
000000
030000
,
200002
000000
000000
003000
020000
000000
000000
030000
002020
000000
000000
300000
020000
000000
000000
003003
200000
000000
000000
030000
000000
000000
000000
300330
002000
000000
000000
000000
020002
000000
000000
000000
,
000020
000000
000000
003000
200000
000000
000000
330000
002200
000000
000000
000030
200000
000000
000000
003303
020000
000000
000000
300000
000200
000000
000000
000000
002000
000000
000000
030000
200020
000000
000000
000300
,
020000
000000
000000
003002
000200
000000
000000
030000
002000
000000
000000
300300
020000
000000
000000
003030
200000
000000
000000
000003
000220
000000
000000
030300
002000
000000
000000
300000
020002
000000
000000
000030
,
000200
000000
000000
030003
200020
000000
000000
303300
020000
000000
000000
000000
002000
000000
000000
030000
200000
000000
000000
003000
020200
000000
000000
300030
002002
000000
000000
033300
200000
000000
000000
000000
,
020200
000000
000000
330300
002020
000000
000000
003000
020200
000000
000000
030300
202000
000000
000000
303000
020200
000000
000000
030000
002000
000000
000000
003333
100000
010000
001000
000100
100000
010000
001000
000100
,
100000
010000
001000
000100
100000
010000
001000
000100
100000
010000
001000
000100
100000
010000
001000
000100
100000
010000
001000
000100
100000
010000
001000
000100
000010
000100
001000
010000
000010
000100
001000
010000
,
000010
000100
001000
010000
000010
000100
001000
010000
000010
000100
001000
010000
000010
000100
001000
010000
000010
000100
001000
010000
000010
000100
001000
010000
100000
010000
001000
000100
100000
010000
001000
000100
,
100000
010000
001000
000100
100000
010000
001000
000100
100000
010000
001000
000100
100000
010000
001000
000100
100000
010000
001000
000100
100000
010000
001000
000100
000010
000100
001000
010000
000010
000100
001000
010000
,
000010
000100
001000
010000
000010
000100
001000
010000
000010
000100
001000
010000
000010
000100
001000
010000
000010
000100
001000
010000
000010
000100
001000
010000
001202
000300
012003
003000
120020
030000
200130
300000
,
210002
300000
021003
030000
002120
003000
100230
000300
210002
300000
021003
030000
002120
003000
100230
000300
001202
000300
012003
003000
120020
030000
200130
300000
001202
000300
012003
003000
120020
030000
200130
300000
,
201002
300000
021003
030000
002120
003000
100230
000300
210002
300000
021003
030000
002120
003000
100230
000300
001202
000300
012003
003000
120020
030000
200130
300000
001202
000300
012003
003000
120020
030000
200130
300000
,
210002
300000
021003
030000
002120
003000
100230
000300
210002
300000
021003
030000
002120
003000
100230
000300
001202
000300
012003
003000
120020
030000
200130
300000
001202
000300
012003
003000
120020
030000
200130
300000
,
210002
300000
021003
030000
002120
003000
100230
000300
110000
000000
000000
000000
011000
000000
000000
000000
001100
000000
000000
000000
000110
000000
000000
000000
110000
000000
000000
000000
000000
000000
000000
000000
,
010100
000000
101000
000011
000110
001100
000110
011000
,
110000
011000
000000
001100
000000
000000
110000
000000
000011
000000
001100
000000
110001
000000
011000
000000
,
001100
000110
100011
000110
001100
011000
101100
011000
,
001100
000110
000000
000000
100001
000000
000110
000000
001100
000000
011000
000000
101100
000000
000000
000000
,
101010
000000
000000
000000
010101
000000
000000
000000
000000
000000
000000
111000
011100
000000
000000
001101
,
010110
000000
000000
011100
111000
000000
000000
010110
011100
000000
000000
000111
000000
111000
000000
011010
,
000000
000000
000000
000000
000111
000000
010110
111000
000000
001101
000000
000111
000000
000000
000111
101100
,
000000
000000
000000
000000
011100
000000
000000
000000
210000
000000
000000
300000
021000
000000
000000
030000
002100
000000
000000
003000
000210
000000
000000
000300
210000
000000
301000
000000
000100
000000
001000
000000
,
000102
000010
000103
001000
200100
301000
010000
001000
000102
000010
000103
001000
010002
001003
000100
001000
,
200100
000010
300100
001000
010002
001003
000100
001000
200100
000010
300100
001000
210000
301000
000100
001000
,
000102
000010
000103
001000
200100
301000
010000
001000
000102
001000
010003
001000
000102
000013
000100
001000
,
210000
001000
300100
001000
000102
000013
000100
001000
210000
001000
300100
000010
200000
000001
000010
000100
,
001000
010000
301000
000100
000012
000100
001000
010000
001000
000100
000013
000100
111000
000000
001100
000000
,
000110
000011
110001
000110
001100
011000
110100
001000
,
000110
010000
100011
000110
001100
011000
111000
011100
,
001110
000000
000111
000000
111111
111111
111111
111111
111111
111111
111111
111111
000000
000000
000000
000000
;

//---------------dance-single - ----------------
#NOTES:
     dance-single:
     :
     Medium:
     1:
     1.000,1.000,1.000,0.506,1.000,1065.000,296.000,101.000,0.000,32.000:  // measure 1
0000
0000
0000
0000
0000
1001
0000
0110
0000
0101
0000
0000
0000
1010
0000
0000
,  // measure 2
0000
0000
0101
0000
0000
0000
0000
1010
0000
0000
0000
0101
0000
0000
0000
0010
,  // measure 3
0000
0000
0001
0000
0000
0000
0100
0000
1000
0100
0000
0000
0010
0000
0001
0000
,  // measure 4
0010
0100
1000
0000
0100
0010
0001
0010
0000
0100
1000
0100
0010
0000
0000
0001
,  // measure 5
0010
0000
0100
0000
0000
0110
0000
0010
1100
0001
1000
0110
0000
0000
0101
0000
,  // measure 6
0000
0000
1010
0000
0000
0000
0101
0001
0000
0000
0001
0000
1000
0010
0010
0100
,  // measure 7
0000
0001
0010
0100
1000
0000
0110
0000
0010
0100
0000
0001
0010
0000
0000
0100
,  // measure 8
0010
0000
0011
0000
1000
0000
0100
0010
0000
0001
0010
0000
0100
2000
0000
0100
,  // measure 9
0010
3000
0000
0011
0000
0000
0101
0000
0101
0000
1010
0000
0101
0000
0000
1010
,  // measure 10
0000
0000
0000
0101
0000
0000
1010
0000
0001
1000
0010
0100
0000
1001
0000
0110
,  // measure 11
0000
1001
0000
0110
0000
0001
1000
0010
0100
0101
0000
0001
0000
0000
0000
1010
,  // measure 12
0000
0000
0000
0101
0000
0101
0000
1010
0000
1001
0000
0110
0000
0001
0100
0001
,  // measure 13
1010
0000
0101
0001
1000
0000
0110
0101
0000
0000
1000
0010
1010
0000
0000
0002
,  // measure 14
0000
0000
0000
0023
0000
0000
0000
0000
0000
0030
0100
1000
0000
0100
0010
0000
,  // measure 15
0010
0000
0100
0000
0010
0000
0000
0001
0000
0001
0010
2000
0000
0000
0000
0000
,  // measure 16
3020
0000
0000
0130
0000
0000
0010
0000
0100
0000
0001
0000
1000
0000
0010
0000
,  // measure 17
0100
0010
0000
0010
0100
0000
0001
0000
0001
0000
0001
0000
0010
0000
0010
0000
,  // measure 18
0010
0000
0010
0000
0010
0100
0000
0100
0000
0100
0001
0000
0020
0000
0000
0000
,  // measure 19
0000
0000
0000
0000
0000
0000
0000
0000
0000
0000
1000
0130
0000
0120
0000
0000
,  // measure 20
0000
0000
0000
0000
0000
0000
0000
0000
0000
0100
1030
0000
0100
0010
0000
0010
,  // measure 21
0002
0000
0000
0000
0000
0013
1110
0120
,  // measure 22
0000
0000
0000
0000
0000
0000
0000
0000
0000
0000
0130
1000
0120
0000
0000
0000
,  // measure 23
0000
0000
0000
0000
0000
0000
0000
0000
0000
0130
0000
0001
0002
0000
0000
0000
,  // measure 24
0000
0000
0000
0000
0000
0000
0000
0000
0000
0000
0000
0013
0000
0110
0100
0000
,  // measure 25
2000
0000
0000
0000
0000
0000
0000
0000
0000
0000
0000
0000
3010
0000
0010
0200
,  // measure 26
0000
0000
0000
0000
0000
0000
0000
0000
0000
0000
0000
0301
0010
0000
1100
0000
,  // measure 27
0110
0000
0001
0010
0000
2100
0000
0100
0010
3001
0010
0000
0011
0000
0100
1000
,  // measure 28
0100
0000
0001
0010
0001
0010
0000
0100
0010
0001
0010
0100
1000
0100
0010
0001
,  // measure 29
0010
0001
0010
0100
1000
0100
0010
0001
0010
0000
0011
0100
1000
0100
0010
0000
,  // measure 30
0011
0000
0011
0000
0100
1000
0100
0000
0010
0001
0010
0001
0010
1100
0000
0110
,  // measure 31
0000
0011
0000
0011
0100
1000
0110
0000
0011
0000
0000
0011
1100
0000
0110
0001
,  // measure 32
0010
0100
0011
0000
0100
0010
0000
0101
0010
0100
1000
0000
0101
0010
0001
0010
,  // measure 33
0100
2000
0000
0110
3001
0010
0001
0010
0000
1100
0000
0110
0000
0011
0000
0100
,  // measure 34
0000
0011
0010
0000
0100
1000
0100
0010
0000
0010
0100
0010
0000
0011
0100
0000
,  // measure 35
0011
0100
0010
0001
0010
0000
0101
0010
0100
1010
0000
0100
0000
1000
0110
0000
,  // measure 36
0010
0100
1000
0110
0000
0010
0000
0110
1000
0100
0000
0010
0001
0010
0100
0000
,  // measure 37
1000
0110
0000
0010
0001
0010
0001
0010
0100
1000
0100
0010
0000
0011
0000
0001
,  // measure 38
0000
0110
1000
0100
0010
0001
0010
0000
0111
0000
0001
0010
0100
1000
0100
0010
,  // measure 39
0001
0010
0000
0011
0100
2000
0000
0100
0010
3001
0010
0000
0011
0100
0000
1000
,  // measure 40
0100
0010
0001
0010
0001
0010
0000
0100
0000
0100
1011
0000
0100
0010
0000
0011
,  // measure 41
0000
1100
2000
0100
0010
3001
0010
0000
0011
0000
1100
0000
0100
0010
0001
0010
,  // measure 42
0100
1000
0000
0110
0000
0000
0001
0000
0002
0000
0000
0000
0023
0000
0000
0000
,  // measure 43
0230
0000
0000
0000
0320
0000
0000
0000
0000
0000
0000
0030
1000
0000
0010
0000
,  // measure 44
0100
0000
0000
0010
0000
0100
0000
0002
0000
0000
0000
0023
0000
0000
0000
0230
,  // measure 45
0000
0000
0000
0320
0000
0000
2030
0000
0000
3000
0010
0200
0000
0000
0000
0302
,  // measure 46
0000
0010
0003
0100
0010
0000
1000
0001
0010
0000
0100
0000
0010
0000
0000
0002
,  // measure 47
0000
0000
0000
0000
0000
0020
0003
0000
0000
0030
0100
0010
0000
0100
1000
0100
,  // measure 48
0010
0000
0010
0200
0000
0000
0000
0302
0000
0000
0010
0203
0000
0000
0000
0320
,  // measure 49
0000
0000
0000
1030
0000
0000
0010
0000
0100
0002
0000
0010
0003
0100
0000
0010
,  // measure 50
0000
1000
0000
0010
0100
0000
0001
0010
0000
1000
0000
0001
0100
0000
0000
1010
,  // measure 51
0000
0000
0000
0202
0000
0000
0000
0000
0303
0000
1010
0000
1001
0000
0000
0110
,  // measure 52
0000
0101
0000
1010
0000
1001
0000
0000
0110
0101
0000
2020
0000
0000
0000
3030
,  // measure 53
0101
0000
0000
0110
0000
0001
1000
0000
0110
0000
0001
1000
0010
0101
0000
0110
,  // measure 54
0000
0000
1001
0010
0100
0001
0100
0101
0000
0000
0000
2020
0000
0000
0000
3030
,  // measure 55
0101
0000
0000
0220
0001
0000
0000
0000
0000
0330
0000
1001
0000
1001
0000
0101
,  // measure 56
0000
0101
0000
0101
0000
1000
0010
1010
0000
0001
0100
0002
0200
0000
0000
0300
,  // measure 57
1013
0000
0000
0000
0101
0001
0100
0000
1010
0000
1010
0000
1101
0000
0001
0000
,  // measure 58
0110
0000
1001
0000
1001
0000
0010
0000
0010
0000
0100
0001
0000
0000
0000
0000
,  // measure 59
0010
0000
0000
0100
0000
0000
0000
0010
0000
0010
0000
0000
0100
0000
0001
0000
,  // measure 60
0001
0000
1000
0010
0000
0010
0100
0000
0001
0000
0100
0010
0000
0010
0000
1000
,  // measure 61
0000
0010
0010
0000
0100
0001
0000
0101
0000
0000
0010
1000
0010
0000
0100
0001
,  // measure 62
0000
0101
0000
0000
0010
1000
0010
0000
0101
0000
0101
0000
1010
0000
0000
0101
,  // measure 63
0000
0000
0000
1010
0000
0000
0000
1001
0000
0000
0110
0001
0100
0001
0000
0000
,  // measure 64
1010
0000
0010
0010
0000
0100
0001
0000
0001
0100
0010
0000
0010
0010
0000
0000
,  // measure 65
1000
0000
1010
0000
0010
0000
0100
0010
0000
0101
0000
0001
0000
1000
0010
0000
,  // measure 66
0110
0000
0001
1000
0010
0100
0101
1000
1001
0000
0110
0000
0000
0000
1001
0000
,  // measure 67
0000
0000
0000
0111
0000
0101
0000
1001
0000
0110
0000
0001
1000
0001
1000
1001
,  // measure 68
0000
1101
0000
0100
0010
0000
0110
0000
1101
0000
1101
0000
1110
0000
0101
0000
,  // measure 69
0101
1101
1110
1101
0101
0101
1110
1111
,  // measure 70
0101
0000
0101
1010
0000
1001
0000
0000
0101
0101
0000
0102
0000
0000
0000
0000
,  // measure 71
0020
0000
0003
0200
0030
0000
0000
0000
0000
0000
0000
0310
0000
0010
0000
1000
,  // measure 72
0000
0001
0000
0001
0000
0100
0010
0000
0010
0100
0000
0000
0020
0000
0000
0030
,  // measure 73
0002
0000
0000
0103
0000
0000
0010
0000
1010
0000
0000
0110
0000
0010
0000
0100
,  // measure 74
0001
0001
0000
0000
0001
0001
0000
0000
0010
0000
0010
0000
0010
0000
0010
0000
,  // measure 75
0010
0000
0010
0000
0010
0010
0000
0010
0000
0000
0000
0010
0200
0000
0000
0010
,  // measure 76
0000
0010
0000
0310
0000
0110
0000
0020
0000
0000
0000
0030
0002
0000
0000
0000
,  // measure 77
0000
0000
0000
0000
0000
0000
0000
0000
0000
0000
0103
0010
0000
0110
0000
2000
,  // measure 78
0000
0200
0000
0000
0000
0000
0000
0000
0000
0000
0000
3320
0000
0000
0000
0000
,  // measure 79
0000
0000
0000
0000
0000
0000
0000
0031
0000
0002
0000
0010
0000
0203
0000
0010
,  // measure 80
0300
0020
0000
0000
0000
0000
0000
0000
0000
0000
0000
0000
1030
0200
0000
0000
,  // measure 81
0000
0000
0000
0000
0000
0010
0300
0020
0000
0000
0030
0002
0000
0000
0000
0000
,  // measure 82
0000
0010
0000
0000
0000
0010
0000
0010
0000
0000
0203
0010
0000
0010
0000
0000
,  // measure 83
0000
0010
0000
0010
0000
0010
0000
0000
0000
0300
1001
0002
0000
1000
0010
0000
,  // measure 84
0000
0010
0100
0000
0000
0000
0100
0000
0100
0003
0000
0010
0001
0010
0000
0100
,  // measure 85
1000
0100
0010
0000
0011
0000
0011
0100
0000
0010
0000
0111
1000
0000
0110
0001
,  // measure 86
0010
0001
0010
0000
2100
0000
0100
0010
3001
0010
0000
0011
0000
2100
0000
0110
,  // measure 87
0000
3001
0010
0100
1000
0110
0001
0010
0000
0011
0100
1000
0000
0110
0001
0010
,  // measure 88
0100
0000
0011
0100
2000
0110
0000
3011
0000
0100
2000
0100
0010
3001
0010
0000
,  // measure 89
0011
0100
0000
1000
0100
0010
0001
0010
0100
1000
0010
0001
0010
0000
0100
2000
,  // measure 90
0100
0010
3000
0021
0000
0001
0100
1030
0110
0000
0001
0010
0001
0000
0100
1000
,  // measure 91
0100
0010
0000
0011
0000
0010
0000
0100
1000
0100
0010
0000
0001
0010
0000
0011
,  // measure 92
1100
2000
0100
0010
3000
0011
0000
0100
0011
0000
0001
0010
0000
1100
0000
0100
,  // measure 93
0010
0001
0010
0000
0011
0000
0100
1000
0100
0010
0001
0010
0000
0100
0010
0001
,  // measure 94
0010
0100
0010
0000
0001
0010
0100
0000
0012
0000
0110
0000
1003
0100
0010
0100
,  // measure 95
0010
1000
0010
0100
1000
0000
0110
0000
0000
0110
1000
0110
0000
0000
0010
0100
,  // measure 96
1000
0100
0010
0000
0010
1000
0000
0110
0000
0100
0011
0000
0101
0010
0100
0010
,  // measure 97
0000
0101
0010
0000
0001
0110
0000
0110
0000
0001
0110
0000
0011
0000
0100
0001
,  // measure 98
0010
0100
0010
0100
0001
0010
0000
0101
0010
0100
0010
0000
0011
0000
0100
0000
,  // measure 99
0110
0001
0010
0100
0001
0010
0101
0000
0010
0100
0001
0110
0000
2000
0100
0000
,  // measure 100
3010
1100
0010
0000
0110
0000
0101
0000
0101
0000
0101
0000
1110
0000
0000
0000
,  // measure 101
0101
0000
0202
0000
0000
0303
1010
1010
,  // measure 102
0101
0000
0101
0000
0110
0000
1001
0000
1001
0000
0000
0220
0000
0000
0000
0330
,  // measure 103
1001
0000
0000
0000
0101
0101
0000
0000
1010
0000
1001
0000
0110
0000
1001
0000
,  // measure 104
0110
0000
0101
0000
1010
0000
0101
0000
0110
1000
0001
0001
0002
0000
0000
0020
,  // measure 105
0003
0000
0000
0230
0000
0000
0000
0000
0000
0000
0310
0000
0010
0000
1000
0001
,  // measure 106
0000
0001
0000
0001
0000
0100
0010
0100
0010
0010
1000
0000
0200
0000
0000
0000
,  // measure 107
0320
0000
0000
0030
0100
0001
0000
0001
1000
0000
0010
0000
0100
0000
0010
0002
,  // measure 108
0100
0000
0010
0003
1100
0000
0100
0010
0000
0010
0000
0200
0000
0000
0000
0000
,  // measure 109
0302
0000
0000
0000
0023
0000
0000
0000
0000
0030
0100
0000
0100
1000
0100
0000
,  // measure 110
0010
0010
0000
0200
0000
0000
0002
0300
0010
0000
0003
0100
2000
0000
0000
0000
,  // measure 111
3020
0000
0000
0000
0130
0000
0001
0000
0000
0100
0010
0000
1000
0000
0100
0000
,  // measure 112
0010
0000
0002
0000
0000
0000
0110
0003
0000
0010
0100
0000
2000
0000
0000
3200
,  // measure 113
0000
0000
0000
0000
0320
0000
0000
0000
0000
0000
0130
0002
0000
0010
0000
0103
,  // measure 114
2000
0000
0100
3010
0000
0010
0100
0000
0001
0010
0000
0200
0000
0000
0000
0000
,  // measure 115
0020
0300
0000
0000
1030
0000
0100
0000
0010
0000
0001
0000
0100
0000
0010
0000
,  // measure 116
0000
1000
0000
0100
0010
0000
0010
0100
0000
0001
0000
0001
0100
0020
0000
0000
,  // measure 117
0000
0130
0000
2000
0000
0000
0000
0000
0000
0000
0000
3010
0000
0000
0000
0000
,  // measure 118
0010
0000
0010
0000
0100
0001
0000
0001
0100
0010
0000
0010
0000
1000
0000
0010
,  // measure 119
0000
0010
0000
0100
0010
0000
0100
0001
0000
0001
0000
0100
0010
0000
0010
1000
,  // measure 120
0000
0010
0000
0110
0000
0100
0001
0100
0010
0000
1001
0000
0100
0000
0000
0000
,  // measure 121
1011
0000
0000
0110
0000
0000
0000
1001
0000
0000
0110
0000
0101
0001
0000
0000
,  // measure 122
0001
0000
0001
0000
0110
0010
0000
0100
0000
0100
0010
0000
1000
0000
0110
0000
,  // measure 123
0000
0000
0000
0010
0000
0010
0100
1000
0101
0010
0000
0000
0011
0100
0000
1000
,  // measure 124
0110
0000
0010
0001
0110
0000
1001
0110
0000
0110
0000
0000
1101
0000
0000
1101
,  // measure 125
0000
0000
0000
1110
0000
0000
1001
0000
1001
0000
0010
0100
0000
0101
1010
0000
,  // measure 126
0000
0101
0000
0110
0000
1001
0000
0110
0001
1000
0000
0110
1101
0000
0000
0000
,  // measure 127
1101
0000
0000
0000
0101
0110
0000
0000
1001
0000
1110
0000
0101
0000
0101
0000
,  // measure 128
1010
0000
1001
0000
0001
0000
0000
0000
0010
0100
0010
0000
1001
0000
0000
0000
,  // measure 129
0110
0000
0000
0000
1001
0000
0000
0000
0000
0000
0000
0110
0000
0101
0000
1010
,  // measure 130
0000
0101
0000
1010
0000
0001
0100
0010
1000
0000
0101
0000
0110
0000
0000
0000
,  // measure 131
1001
0000
0000
0110
0000
1001
0000
0010
0100
0001
1000
0010
0100
0001
0100
1001
,  // measure 132
0000
0110
1002
0000
0000
0000
0000
0003
;
